<?xml version="1.0" standalone="no"?>
<!DOCTYPE svg PUBLIC "-//W3C//DTD SVG 1.1//EN" "http://www.w3.org/Graphics/SVG/1.1/DTD/svg11.dtd">
<svg xmlns="http://www.w3.org/2000/svg">
<metadata>Copyright (C) 2020 by original authors @ fontello.com</metadata>
<defs>
<font id="fontello" horiz-adv-x="1000" >
<font-face font-family="fontello" font-weight="400" font-stretch="normal" units-per-em="1000" ascent="850" descent="-150" />
<missing-glyph horiz-adv-x="1000" />
<glyph glyph-name="date" unicode="&#x21;" d="M750 683h-500v-41h-42v41h-83a42 42 0 0 1-42-41v-167h834v167a42 42 0 0 1-42 41h-83v-41h-42v41z m42 42h83a83 83 0 0 0 83-83v-625a83 83 0 0 0-83-84h-750a83 83 0 0 0-83 84v625a83 83 0 0 0 83 83h83v42h42v-42h500v42h42v-42z m-709-292v-416a42 42 0 0 1 42-42h750a42 42 0 0 1 42 42v416h-834z m363-41l155-194-157-158-26 27 133 133-134 168 29 24z" horiz-adv-x="1000" />

<glyph glyph-name="departure-copy" unicode="&#x22;" d="M797 506l-102-40-5 1-88 11-150 20-4 1c-142 19-241 32-244 32-1 0-10-4-20-11a352 352 0 0 1-14-8l268-143-243-83-127 68-38-38 168-155 748 271c10 9 22 16 18 12 7 5 11 11 13 16l1 1c3 6 1 12-7 22-7 12-36 21-80 24a677 677 0 0 1-74 0c2 0-12-1-20-1z m170-109a8 8 0 0 1 1 0z m-946-505v-21h958v21h-958z" horiz-adv-x="1000" />

<glyph glyph-name="departure-copy-2" unicode="&#x23;" d="M55 432l747-271 168 155-38 38-126-68-244 83 268 143c-2 1-4 2-6 3-2 2-5 4-7 5-11 7-20 11-20 11-4 0-103-13-245-32-2 0-2 0-4-1-47-6-95-12-150-20-14-2-80-10-88-11l-5-1-102 40c-8 0-22 1-19 1-28 1-52 1-75 0-44-3-73-12-81-25-7-9-8-15-6-21l1-1c2-5 7-11 13-16-4 4 8-3 19-12z m924-540l-958 0 0-21 958 0 0 21z" horiz-adv-x="1000" />

<glyph glyph-name="ships" unicode="&#x24;" d="M221 239c7 0 12-4 15-9 3-5 5-12 5-20 0-7-2-14-5-19-3-5-8-9-15-9-6 0-11 4-14 9a37 37 0 0 0-5 19c0 8 1 15 5 20 3 5 8 9 14 9z m-9-29c0-5 1-10 4-13 2-4 4-5 5-5 2 0 4 1 6 5 2 3 3 8 3 13s-1 11-3 14c-2 4-4 5-6 5-1 0-3-1-5-5a27 27 0 0 1-4-14z m49 235h103v-49h-103v49z m10-10v-29h83v29h-83z m360 10h103v-49h-103v49z m10-39h82v29h-82v-29z m-256 39h225v-49h-225v49z m10-10v-29h204v29h-204z m29 232c3 8 11 15 21 15h105c9 0 18-7 20-15l30-98h58c12 0 22-10 22-21v-37h74c12 0 22-10 22-22v-163l77-17 1 0-1-5-7-56-1 0-20-145c9-1 19-5 29-10 12-5 25-13 36-21a552 552 0 0 0 41-30l0-1 0 0 0 0-3-4-3-4 0 0-1 0 0 1a353 353 0 0 1-11 9 542 542 0 0 1-28 20 293 293 0 0 1-35 21c-12 6-22 9-30 9-7 0-15-3-23-9-9-5-18-13-27-20l0 0c-9-8-18-16-28-22-9-6-19-10-29-10-10 0-20 4-30 10-9 6-18 14-27 22l0 0c-9 7-18 15-27 20-8 6-16 9-24 9-7 0-15-3-24-9-8-5-17-13-26-20l0 0c-9-8-18-16-28-22-9-6-19-10-29-10-10 0-20 4-30 10-9 6-18 14-27 22l0 0c-9 7-18 15-27 20-8 6-16 9-24 9-7 0-15-3-24-9-8-5-17-13-26-20l0 0c-9-8-18-16-28-22-9-6-19-10-29-10-11 0-20 4-30 10-9 6-18 14-27 22l0 0c-10 7-18 15-27 20-9 6-16 9-24 9-7 0-18-3-29-9-12-6-24-13-35-21a541 541 0 0 1-39-29l-1-1 0 0 0 0-3 4-4 4 0 0 1 0 0 1 3 2c2 1 5 4 8 7 8 6 18 13 29 21 12 8 24 16 36 21 9 5 19 8 27 10l-19 145 0 0-7 56-1 5 78 17v163c0 5 2 9 4 13l0 0c4 5 10 9 17 9h75v37c0 11 10 21 22 21h58l29 98z m411-417l-338 71-338-71 20-147c9-1 17-5 26-10 9-6 18-14 27-21l0 0c9-8 18-15 27-21 9-5 16-9 24-9 7 0 15 4 24 9 8 6 17 13 26 21l0 0c9 7 19 15 28 21 9 6 19 10 29 10 11 0 20-4 30-10 9-6 18-14 27-21l0 0c10-8 18-15 27-21 9-5 17-9 24-9 7 0 15 4 24 9 8 6 17 13 26 21l0 0c9 7 19 15 28 21 9 6 19 10 29 10 11 0 21-4 30-10 9-6 18-14 27-21l1 0c9-8 17-15 26-21 9-5 17-9 24-9 7 0 15 4 24 9 8 6 17 13 26 21l1 0c8 7 18 15 27 21 8 5 16 9 24 10l20 147z m-498 308a11 11 0 0 1-11-10v-37h343v37a11 11 0 0 1-11 10h-321z m232 76h-144l-19-65h183l-20 65z m-135 29l-5-18h137l-6 18a11 11 0 0 1-10 8h-105c-5 0-9-3-11-8z m-119-163h-75a11 11 0 0 1-10-11v-13h535v13a11 11 0 0 1-11 11h-439z m-85-34v-138l262 55v2l5-1 1 0 267-56v138h-536z m606-206l6 41-339 71v-42l333-70z m-344 70v42l-339-71 5-41 334 70z m-424-329l-4 4 0 0 1 0 0 1 3 2c2 2 5 4 8 7 8 6 18 13 29 21 12 8 24 16 36 22 12 5 24 10 34 10 10 0 20-5 30-11 9-6 18-13 27-21l0 0c9-8 18-15 27-21 9-5 16-8 24-8 7 0 15 3 24 8 8 6 17 13 26 21l0 0c9 8 19 15 28 21 9 6 19 11 29 11 11 0 20-5 30-11 9-6 18-13 27-21l0 0c10-8 18-15 27-21 9-5 17-8 24-8 7 0 15 3 24 8 8 6 17 13 26 21l0 0c9 8 19 15 28 21 9 6 19 11 29 11 11 0 21-5 30-11 9-6 18-13 27-21l1 0c9-8 17-15 26-21 9-5 17-8 24-8 7 0 15 3 24 8 8 6 17 13 26 21l1 0c8 8 18 15 27 21 9 6 19 11 29 11 11 0 23-5 34-10 12-6 25-14 36-22a552 552 0 0 0 41-30l0-1 0 0 0 0-3-4-3-4 0 0-1 0 0 1a353 353 0 0 1-11 9 542 542 0 0 1-28 21 293 293 0 0 1-35 20c-12 6-22 9-30 9-7 0-15-3-23-9-9-5-18-12-27-20l0 0c-9-8-18-16-28-22-9-5-19-10-29-10-10 0-20 5-30 10-9 6-18 14-27 22l0 0c-9 8-18 15-27 21-8 5-16 8-24 8-7 0-15-3-24-8-8-6-17-13-26-21l0 0c-9-8-18-16-28-22-9-5-19-10-29-10-10 0-20 5-30 10-9 6-18 14-27 22l0 0c-9 8-18 15-27 21-8 5-16 8-24 8-7 0-15-3-24-8-8-6-17-13-26-21l0 0c-9-8-18-16-28-22-9-5-19-10-29-10-11 0-20 5-30 10-9 6-18 14-27 22l0 0c-10 8-18 15-27 21-9 5-16 8-24 8-7 0-18-3-29-9-12-5-24-13-35-20a541 541 0 0 1-39-30l-1-1 0 0 0 0-3 4z" horiz-adv-x="1000" />

<glyph glyph-name="city" unicode="&#x25;" d="M530 808l0-133 84 0 0-143 90 0 0-46 131 0 0-83 59 0 0-131 64 0 0-380-309 0 0 585-272 0 0-143-55 0 0 198 70 0 0 143 83 0 0 78-378 0 0-861-55 0 0 916 488 0z m1-522l0-394-353 0 0 394 353 0z m-70-241l-55 0 0-55 55 0 0 55z m-158 0l-55 0 0-55 55 0 0 55z m158 150l-55 0 0-55 55 0 0 55z m-158 0l-55 0 0-55 55 0 0 55z m298 211l0-55-55 0 0 55 55 0z m-121 0l0-55-55 0 0 55 55 0z m-260 134l0-54-55 0 0 54 55 0z m339 80l-112 0 0-88 112 0 0 88z m-227 55l0-55-55 0 0 55 55 0z m-112 0l0-55-55 0 0 55 55 0z" horiz-adv-x="1000" />

<glyph glyph-name="cancel-circled" unicode="&#x26;" d="M641 224q0 14-10 25l-101 101 101 101q10 11 10 25 0 15-10 26l-51 50q-10 11-25 11-15 0-25-11l-101-101-101 101q-11 11-25 11-16 0-26-11l-50-50q-11-11-11-26 0-14 11-25l101-101-101-101q-11-11-11-25 0-15 11-26l50-50q10-11 26-11 14 0 25 11l101 101 101-101q10-11 25-11 15 0 25 11l51 50q10 11 10 26z m216 126q0-117-57-215t-156-156-215-58-216 58-155 156-58 215 58 215 155 156 216 58 215-58 156-156 57-215z" horiz-adv-x="857.1" />

<glyph glyph-name="family" unicode="&#x27;" d="M480 415c70 0 134-28 181-73 32 22 70 34 109 34 105 0 190-84 190-188l0-50c0-22-18-40-40-40l-179 0 0-12c0-28-23-51-51-51l-420 0c-28 0-51 23-51 51l0 0-178 0c-23 0-41 18-41 40l0 51c0 103 85 188 190 188 36 0 71-10 102-30 47 49 114 80 188 80z m0-31c-127 0-230-102-230-227l0-71c0-11 9-20 20-20l420 0c11 0 20 9 20 20l0 71c0 125-103 227-230 227z m-290-50c-88 0-159-71-159-157l0-51c0-5 4-9 10-9l178 0 0 40c0 58 20 111 52 155-24 14-52 22-81 22z m580 11c-31 0-62-9-87-26 36-44 58-101 58-162l0-28 179-1c5 0 9 5 9 10l0 50c0 87-71 157-159 157z m-580 267c61 0 111-50 111-110 0-61-50-111-111-111-61 0-111 50-111 111 0 60 50 110 111 110z m580 8c62 0 112-50 112-111 0-61-50-110-112-110-61 0-111 49-111 110 0 61 50 111 111 111z m-580-39c-44 0-80-36-80-79 0-44 36-80 80-80 44 0 80 36 80 80 0 43-36 79-80 79z m580 8c-44 0-80-36-80-80 0-43 36-79 80-79 44 0 81 36 81 79 0 44-37 80-81 80z m-295 128c79 0 143-64 143-142 0-78-64-142-143-142-79 0-143 64-143 142 0 78 64 142 143 142z m0-31c-62 0-112-50-112-111 0-61 50-111 112-111 62 0 112 50 112 111 0 61-50 111-112 111z" horiz-adv-x="960" />

<glyph glyph-name="one-person" unicode="&#x28;" d="M486 398c176 0 319-142 319-316l0-87c0-34-28-62-62-62l-514 0c-34 0-62 28-62 62l0 87c0 174 143 316 319 316z m0-38c-155 0-281-125-281-278l0-87c0-13 10-24 24-24l514 0c13 0 24 11 24 24l0 87c0 153-126 278-281 278z m-7 407c97 0 175-78 175-174 0-95-78-173-175-173-96 0-175 78-175 173 0 96 79 174 175 174z m0-38c-76 0-137-61-137-136 0-74 61-135 137-135 76 0 137 61 137 135 0 75-61 136-137 136z" horiz-adv-x="1000" />

<glyph glyph-name="two-persons" unicode="&#x29;" d="M350 409c83 0 159-34 215-90 38 27 83 42 129 42 125 0 226-105 226-233l0-63c0-28-22-50-48-50l-212 0 0-15c0-34-27-62-61-62l-499 0c-33 0-60 28-60 62l0 89c0 176 139 320 310 320z m0-38c-151 0-273-127-273-282l0-89c0-13 10-24 23-24l499 0c13 0 24 11 24 24l0 89c0 155-123 282-273 282z m344-48c-37 0-73-12-104-33 44-55 70-125 70-201l0-36 212 0c6 0 11 6 11 12l0 63c0 107-84 195-189 195z m0 340c73 0 133-62 133-137 0-76-60-137-133-137-72 0-132 61-132 137 0 75 60 137 132 137z m0-39c-52 0-95-44-95-98 0-54 43-99 95-99 53 0 96 45 96 99 0 54-43 98-96 98z m-351 159c94 0 170-79 170-176 0-97-76-175-170-175-93 0-170 78-170 175 0 97 77 176 170 176z m0-38c-73 0-133-62-133-138 0-75 60-137 133-137 74 0 134 62 134 137 0 76-60 138-134 138z" horiz-adv-x="960" />

<glyph glyph-name="cancel" unicode="&#x2a;" d="M724 112q0-22-15-38l-76-76q-16-15-38-15t-38 15l-164 165-164-165q-16-15-38-15t-38 15l-76 76q-16 16-16 38t16 38l164 164-164 164q-16 16-16 38t16 38l76 76q16 16 38 16t38-16l164-164 164 164q16 16 38 16t38-16l76-76q15-15 15-38t-15-38l-164-164 164-164q15-15 15-38z" horiz-adv-x="785.7" />

<glyph glyph-name="cancel-circled2" unicode="&#x2b;" d="M612 248l-81-82q-6-5-13-5t-13 5l-76 77-77-77q-5-5-13-5t-12 5l-82 82q-6 6-6 13t6 13l76 76-76 77q-6 5-6 12t6 13l82 82q5 5 12 5t13-5l77-77 76 77q6 5 13 5t13-5l81-82q6-5 6-13t-6-12l-76-77 76-76q6-6 6-13t-6-13z m120 102q0 83-41 152t-110 111-152 41-153-41-110-111-41-152 41-152 110-111 153-41 152 41 110 111 41 152z m125 0q0-117-57-215t-156-156-215-58-216 58-155 156-58 215 58 215 155 156 216 58 215-58 156-156 57-215z" horiz-adv-x="857.1" />

<glyph glyph-name="user-times" unicode="&#x2c;" d="M393 350q-89 0-152 63t-62 151 62 152 152 63 151-63 63-152-63-151-151-63z m601-179l139-138q5-5 5-13 0-8-5-13l-76-76q-5-5-12-5-8 0-13 5l-139 139-139-139q-5-5-13-5-7 0-12 5l-76 76q-5 5-5 13 0 8 5 13l139 138-139 139q-5 5-5 13 0 8 5 13l76 75q5 5 12 5 8 0 13-5l139-139 139 139q5 5 13 5 7 0 12-5l76-75q5-5 5-13 0-8-5-13z m-278 0l-101-101q-21-20-21-50 0-30 21-51l46-46q-11-2-24-2h-488q-67 0-108 39t-41 106q0 30 2 58t8 61 15 60 24 55 34 45 48 30 62 11q11 0 22-10 86-68 178-68t178 68q11 10 22 10 15 0 31-4-15-15-22-27t-8-32q0-30 21-51z" horiz-adv-x="1142.9" />

<glyph glyph-name="user-plus" unicode="&#x2d;" d="M393 350q-89 0-152 63t-62 151 62 152 152 63 151-63 63-152-63-151-151-63z m536-71h196q7 0 13-6t5-12v-107q0-8-5-13t-13-5h-196v-197q0-7-6-12t-12-6h-107q-8 0-13 6t-5 12v197h-197q-7 0-12 5t-6 13v107q0 7 6 12t12 6h197v196q0 7 5 13t13 5h107q7 0 12-5t6-13v-196z m-411-125q0-29 21-51t50-21h143v-133q-38-28-95-28h-488q-67 0-108 39t-41 106q0 30 2 58t8 61 15 60 24 55 34 45 48 30 62 11q11 0 22-10 44-34 86-51t92-17 92 17 86 51q11 10 22 10 73 0 121-54h-125q-29 0-50-21t-21-50v-107z" horiz-adv-x="1142.9" />

<glyph glyph-name="user" unicode="&#x2e;" d="M714 69q0-60-35-104t-84-44h-476q-49 0-84 44t-35 104q0 48 5 90t17 85 33 73 52 50 76 19q73-72 174-72t175 72q42 0 75-19t52-50 33-73 18-85 4-90z m-143 495q0-88-62-151t-152-63-151 63-63 151 63 152 151 63 152-63 62-152z" horiz-adv-x="714.3" />

<glyph glyph-name="male" unicode="&#x2f;" d="M571 457v-232q0-22-15-38t-38-16-38 16-16 38v196h-35v-509q0-25-19-44t-44-18-44 18-18 44v259h-36v-259q0-25-19-44t-44-18-44 18-18 44v509h-36v-196q0-22-15-38t-38-16-38 16-16 38v232q0 45 31 76t76 31h357q45 0 76-31t31-76z m-160 250q0-52-37-88t-88-37-89 37-36 88 36 89 89 36 88-36 37-89z" horiz-adv-x="571.4" />

<glyph glyph-name="users" unicode="&#x30;" d="M331 350q-90-3-148-71h-75q-45 0-77 22t-31 66q0 197 69 197 4 0 25-11t54-24 66-12q38 0 75 13-3-21-3-37 0-78 45-143z m598-356q0-66-41-105t-108-39h-488q-68 0-108 39t-41 105q0 30 2 58t8 61 14 61 24 54 35 45 48 30 62 11q6 0 24-12t41-26 59-27 76-12 75 12 60 27 41 26 24 12q34 0 62-11t47-30 35-45 24-54 15-61 8-61 2-58z m-572 713q0-59-42-101t-101-42-101 42-42 101 42 101 101 42 101-42 42-101z m393-214q0-89-63-152t-151-62-152 62-63 152 63 151 152 63 151-63 63-151z m321-126q0-43-31-66t-77-22h-75q-57 68-147 71 45 65 45 143 0 16-3 37 37-13 74-13 33 0 67 12t54 24 24 11q69 0 69-197z m-71 340q0-59-42-101t-101-42-101 42-42 101 42 101 101 42 101-42 42-101z" horiz-adv-x="1071.4" />

<glyph glyph-name="plus" unicode="&#x31;" d="M786 439v-107q0-22-16-38t-38-15h-232v-233q0-22-16-37t-38-16h-107q-22 0-38 16t-15 37v233h-232q-23 0-38 15t-16 38v107q0 23 16 38t38 16h232v232q0 22 15 38t38 16h107q23 0 38-16t16-38v-232h232q23 0 38-16t16-38z" horiz-adv-x="785.7" />

<glyph glyph-name="eye-off" unicode="&#x32;" d="M310 105l43 79q-48 35-76 88t-27 114q0 67 34 125-128-65-213-197 94-144 239-209z m217 424q0 11-8 19t-19 7q-70 0-120-50t-50-119q0-11 8-19t19-8 19 8 8 19q0 48 34 82t82 34q11 0 19 8t8 19z m202 106q0-4 0-5-59-105-176-316t-176-316l-28-50q-5-9-15-9-7 0-75 39-9 6-9 16 0 7 25 49-80 36-147 96t-117 137q-11 17-11 38t11 39q86 131 212 207t277 76q50 0 100-10l31 54q5 9 15 9 3 0 10-3t18-9 18-10 18-10 10-7q9-5 9-15z m21-249q0-78-44-142t-117-91l157 280q4-25 4-47z m250-72q0-19-11-38-22-36-61-81-84-96-194-149t-234-53l41 74q119 10 219 76t169 171q-65 100-158 164l35 63q53-36 102-85t81-103q11-19 11-39z" horiz-adv-x="1000" />

<glyph glyph-name="eye" unicode="&#x33;" d="M929 314q-85 132-213 197 34-58 34-125 0-103-73-177t-177-73-177 73-73 177q0 67 34 125-128-65-213-197 75-114 187-182t242-68 243 68 186 182z m-402 215q0 11-8 19t-19 7q-70 0-120-50t-50-119q0-11 8-19t19-8 19 8 8 19q0 48 34 82t82 34q11 0 19 8t8 19z m473-215q0-19-11-38-78-129-210-206t-279-77-279 77-210 206q-11 19-11 38t11 39q78 128 210 205t279 78 279-78 210-205q11-20 11-39z" horiz-adv-x="1000" />

<glyph glyph-name="lock" unicode="&#x34;" d="M179 421h285v108q0 59-42 101t-101 41-101-41-41-101v-108z m464-53v-322q0-22-16-37t-38-16h-535q-23 0-38 16t-16 37v322q0 22 16 38t38 15h17v108q0 102 74 176t176 74 177-74 73-176v-108h18q23 0 38-15t16-38z" horiz-adv-x="642.9" />

<glyph glyph-name="lock-open-alt" unicode="&#x35;" d="M589 421q23 0 38-15t16-38v-322q0-22-16-37t-38-16h-535q-23 0-38 16t-16 37v322q0 22 16 38t38 15h17v179q0 103 74 177t176 73 177-73 73-177q0-14-10-25t-25-11h-36q-14 0-25 11t-11 25q0 59-42 101t-101 42-101-42-41-101v-179h410z" horiz-adv-x="642.9" />

<glyph glyph-name="lock-open" unicode="&#x36;" d="M929 529v-143q0-15-11-25t-25-11h-36q-14 0-25 11t-11 25v143q0 59-41 101t-101 41-101-41-42-101v-108h53q23 0 38-15t16-38v-322q0-22-16-37t-38-16h-535q-23 0-38 16t-16 37v322q0 22 16 38t38 15h375v108q0 103 73 176t177 74 176-74 74-176z" horiz-adv-x="928.6" />

<glyph glyph-name="share" unicode="&#x37;" d="M679 279q74 0 126-53t52-126-52-126-126-53-127 53-52 126q0 7 1 19l-201 100q-51-48-121-48-75 0-127 53t-52 126 52 126 127 53q70 0 121-48l201 100q-1 12-1 19 0 74 52 126t127 53 126-53 52-126-52-126-126-53q-71 0-122 48l-201-100q1-12 1-19t-1-19l201-100q51 48 122 48z" horiz-adv-x="857.1" />

<glyph glyph-name="share-squared" unicode="&#x38;" d="M714 183q0 49-35 84t-84 36q-46 0-80-33l-135 67q1 9 1 13t-1 13l135 67q34-33 80-33 50 0 84 36t35 84-35 84-84 35-84-35-35-84q0-4 1-13l-134-67q-35 32-81 32-49 0-84-35t-35-84 35-84 84-35q46 0 81 32l134-67q-1-9-1-13 0-49 35-84t84-35 84 35 35 84z m143 435v-536q0-66-47-113t-114-48h-535q-67 0-114 48t-47 113v536q0 66 47 113t114 48h535q67 0 114-48t47-113z" horiz-adv-x="857.1" />

<glyph glyph-name="basics-15-512" unicode="&#x39;" d="M488 480l0-146-145 0-146 0 0-12 0-13 146 0 145 0 0-145 0-146 14 0 14 0 0 146 0 145 144 0 145 0 0 13 0 12-145 0-144 0 0 146 0 145-14 0-14 0 0-145z" horiz-adv-x="1000" />

<glyph glyph-name="plus-icon-transparent-0" unicode="&#x3a;" d="M486 848c-3-1-9-3-11-4-7-4-16-14-19-20-7-12-6 1-6-221l0-202-203 0c-222 0-209 0-221-6-6-4-16-14-20-21-8-14-8-33 0-47 4-7 13-16 20-20 11-7-2-6 221-6l203 0 0-204c0-224-1-208 5-220 4-7 14-17 21-20 15-8 33-8 47 0 7 3 17 13 21 20 6 12 5-1 5 221l0 203 206 0 206 0 6 2c12 6 24 18 29 30 3 7 4 20 2 28-3 13-13 27-25 34-12 6 1 6-221 6l-203 0 0 202c0 222 1 209-5 221-4 7-14 17-21 20-10 6-24 7-37 4z" horiz-adv-x="1000" />

<glyph glyph-name="phone" unicode="&#x3b;" d="M786 158q0-15-6-39t-12-38q-11-28-68-60-52-28-103-28-15 0-30 2t-32 7-26 8-31 11-28 10q-54 20-97 47-71 44-148 120t-120 148q-27 43-46 97-2 5-10 28t-12 31-8 26-7 32-2 29q0 52 29 104 31 57 59 68 14 6 38 12t39 6q8 0 12-2 10-3 30-42 6-11 16-31t20-35 17-30q2-2 10-14t12-20 4-16q0-11-16-27t-35-31-34-30-16-25q0-5 3-13t4-11 8-14 7-10q42-77 97-132t131-97q1 0 10-6t14-8 11-5 13-2q10 0 25 16t30 34 31 35 28 16q7 0 15-4t20-12 14-10q14-8 30-17t36-20 30-17q39-19 42-29 2-4 2-12z" horiz-adv-x="785.7" />

<glyph glyph-name="mail" unicode="&#x3c;" d="M929 11v428q-18-20-39-36-149-115-238-189-28-24-46-37t-48-28-57-13h-2q-26 0-57 13t-48 28-46 37q-88 74-238 189-21 16-39 36v-428q0-7 6-13t12-5h822q7 0 12 5t6 13z m0 586v14t-1 7-1 7-3 5-5 4-8 2h-822q-7 0-12-6t-6-12q0-94 83-159 107-84 223-176 4-3 20-17t25-21 25-17 28-16 24-5h2q11 0 24 5t28 16 25 17 25 21 20 17q116 92 224 176 30 24 56 65t26 73z m71 21v-607q0-37-26-63t-63-27h-822q-36 0-63 27t-26 63v607q0 37 26 63t63 26h822q37 0 63-26t26-63z" horiz-adv-x="1000" />

<glyph glyph-name="flights" unicode="&#xe800;" d="M539 224a50 50 0 0 0-42-23l-11 0a16 16 0 0 0-15 20l21 93 132 55-85-145z m-54-7a1 1 0 0 1 1-1l11 0a35 35 0 0 1 30 16l63 107-85-36-20-86z m379-72v-85h-488v85h488z m-474-70h460v55h-460v-55z m248 496c53 31 102 57 168 57 22 0 51-7 75-13a747 747 0 0 0 43-14l0 0 0 0 1 0 0 0 0 0c0 0 0 0 0 0l1 0 0-1c6-4 12-9 17-16a44 44 0 0 0 3-45c-7-14-21-26-40-34h0l-3 7 3-7-365-154-258-109-46-18a58 58 0 0 0-60 11l-92 84a28 28 0 0 0 10 47c5 2 11 2 16 0l82-18a130 130 0 0 1 94 15l1 0 0 1 47 27 101 60-142 69a19 19 0 0 0 1 34l36 16c5 3 10 3 16 2l227-39 51 30 13 8z m-342-220l-1 0-2-2a144 144 0 0 0-104-15l-81 18a15 15 0 0 1-8 0h0a14 14 0 0 1-5-23l91-83c13-12 30-15 46-9l45 19 258 109 365 153c17 7 28 17 33 27 5 10 5 21-2 31a45 45 0 0 1-12 12 468 468 0 0 1-12 3c-7 3-18 6-30 10-23 6-52 13-71 13-62 0-108-24-161-56l-12-7-53-31a8 8 0 0 0-6-2h0l-230 40h0a11 11 0 0 1-7-1l-36-16a4 4 0 0 1 0-8l152-74c6-3 6-11 1-14l-1 0-110-66-47-28 0 0z" horiz-adv-x="1000" />

<glyph glyph-name="arrow" unicode="&#xe801;" d="M494 135l-375 375-29-29 404-405 405 405-30 29z" horiz-adv-x="1000" />

<glyph glyph-name="car-7-outline" unicode="&#xe802;" d="M213 433c15 55 31 107 46 144 7 19 14 34 20 44 3 5 6 9 8 11 2 2 3 2 3 2h430l0 0c0 0 1 0 3-2 3-2 5-6 9-11 7-10 14-25 23-44 17-38 37-89 55-144l1-4 90-33c21-14 35-43 35-76v-107c0-16-5-32-13-42-8-11-19-17-30-17h-759c-11 0-22 6-30 17-8 10-13 26-13 42v107c0 33 14 62 35 76l86 34 1 3z m-121-271c11-13 25-22 42-22h759c17 0 31 9 42 22 10 13 16 32 16 51v107c0 37-16 72-43 89l-1 0-61 23h13c23 0 44 15 44 37v26c0 10-10 17-18 17h-87a1211 1211 0 0 1-30 71c-8 19-17 35-24 46a80 80 0 0 1-11 14c-3 3-7 6-13 6h-430c-6 0-10-3-13-7a74 74 0 0 1-10-13c-7-12-14-27-22-47a1103 1103 0 0 1-25-70h-87c-9 0-18-7-18-17v-26c0-22 21-37 43-37h20l-58-23-1 0c-27-17-43-52-43-89v-107c0-19 6-38 16-51z m610 434h-393l-2-4c-14-29-35-90-53-155l-2-9h519l-4 9c-22 66-47 127-63 155l-2 4z m-431-154c17 58 34 112 47 139h375c15-26 36-80 57-139h-479z m-97-110c-19 0-33-16-33-35v-31c0-19 15-35 33-35h61c19 0 33 16 33 35v31c0 19-14 35-33 35h-61z m-18-35c0 12 9 21 18 21h61c10 0 18-9 18-21v-31c0-12-8-20-18-20h-61c-9 0-18 8-18 20v31z m636 35c-19 0-33-16-33-35v-31c0-19 14-35 33-35h61c19 0 33 16 33 35v31c0 19-14 35-33 35h-61z m-18-35c0 12 9 21 18 21h61c9 0 18-9 18-21v-31c0-12-9-20-18-20h-61c-9 0-18 8-18 20v31z m-162-40h-197v-76h197v76z m-182-61v47h167v-47h-167z m-301 299v-26c0-11 12-22 29-22h38c5 16 11 33 18 50h-81a5 5 0 0 1-3-1c-1-1-1-1-1-1z m693-48c-6 16-12 33-18 50h81c1 0 2-1 3-1 1-1 1-1 1-1v-26c0-11-12-22-30-22h-37z m-634-314h134v-67c0-24-18-45-42-45h-49c-24 0-43 21-43 45v67z m15-15v-52c0-17 13-30 28-30h49c15 0 28 13 28 30v52h-105z m494 15h134v-67c0-24-18-45-42-45h-49c-24 0-43 21-43 45v67z m15-15v-52c0-17 13-30 28-30h49c15 0 28 13 28 30v52h-105z" horiz-adv-x="1000" />

<glyph glyph-name="date-arr" unicode="&#xe803;" d="M750 683h-500v-41h-42v41h-83a42 42 0 0 1-42-41v-167h834v167a42 42 0 0 1-42 41h-83v-41h-42v41z m42 42h83a83 83 0 0 0 83-83v-625a83 83 0 0 0-83-84h-750a83 83 0 0 0-83 84v625a83 83 0 0 0 83 83h83v42h42v-42h500v42h42v-42z m-709-292v-416a42 42 0 0 1 42-42h750a42 42 0 0 1 42 42v416h-834z m468-41l30-24-135-168 134-133-27-27-157 158 155 194z" horiz-adv-x="1000" />

<glyph glyph-name="flights-1" unicode="&#xe806;" d="M539 224a50 50 0 0 0-42-23l-11 0a16 16 0 0 0-15 20l21 93 132 55-85-145z m-54-7a1 1 0 0 1 1-1l11 0a35 35 0 0 1 30 16l63 107-85-36-20-86z m379-72v-85h-488v85h488z m-474-70h460v55h-460v-55z m248 496c53 31 102 57 168 57 22 0 51-7 75-13a747 747 0 0 0 43-14l0 0 0 0 1 0 0 0 0 0c0 0 0 0 0 0l1 0 0-1c6-4 12-9 17-16a44 44 0 0 0 3-45c-7-14-21-26-40-34h0l-3 7 3-7-365-154-258-109-46-18a58 58 0 0 0-60 11l-92 84a28 28 0 0 0 10 47c5 2 11 2 16 0l82-18a130 130 0 0 1 94 15l1 0 0 1 47 27 101 60-142 69a19 19 0 0 0 1 34l36 16c5 3 10 3 16 2l227-39 51 30 13 8z m-342-220l-1 0-2-2a144 144 0 0 0-104-15l-81 18a15 15 0 0 1-8 0h0a14 14 0 0 1-5-23l91-83c13-12 30-15 46-9l45 19 258 109 365 153c17 7 28 17 33 27 5 10 5 21-2 31a45 45 0 0 1-12 12 468 468 0 0 1-12 3c-7 3-18 6-30 10-23 6-52 13-71 13-62 0-108-24-161-56l-12-7-53-31a8 8 0 0 0-6-2h0l-230 40h0a11 11 0 0 1-7-1l-36-16a4 4 0 0 1 0-8l152-74c6-3 6-11 1-14l-1 0-110-66-47-28 0 0z" horiz-adv-x="1000" />

<glyph glyph-name="hotels" unicode="&#xe807;" d="M104 575c-14 0-14 0-14 0v0l0 1a17 17 0 0 0 0 3c0 1 1 3 2 5 1 3 4 7 8 11 9 8 23 17 49 25 52 17 153 32 351 32 198 0 299-15 351-32 26-8 40-17 49-25 4-4 7-8 8-11a25 25 0 0 0 2-7l0-1 0 0v-1l0 0c0 0 0 0-14 0h14v0l-10-188a42 42 0 0 0 38-41v-292h-84l-21 104h-666l-21-104h-83v292a42 42 0 0 0 37 41l-10 188v0h14z m0 0l11-187h770l11 187s0 63-396 63-396-63-396-63z m819-506v221h-846v-221h57l21 104h690l21-104h57z m0 277a27 27 0 0 1-27 27h-792a27 27 0 0 1-27-27v-42h846v42z m-694 208s31 21 125 21 125-21 125-21v-146h-250v146z m15-131h221v122a138 138 0 0 1-17 6c-18 4-48 9-94 9s-76-5-94-9a138 138 0 0 1-16-6v-122z m277 131s31 21 125 21 125-21 125-21v-146h-250v146z m14-131h221v122a138 138 0 0 1-16 6c-18 4-48 9-94 9s-76-5-94-9a138 138 0 0 1-17-6v-122z" horiz-adv-x="1000" />

<glyph glyph-name="left" unicode="&#xe808;" d="M646 38l22 21-146 145-145 146 146 145 145 145-21 22-22 21-167-166-166-167 166-167 167-166 21 21z" horiz-adv-x="1000" />

<glyph glyph-name="fly" unicode="&#xe809;" d="M1004 249c-18-20-52-19-53-23l-809-12-124 231 82 40 101-110 200-1-195 211 9 4c12 3 59 18 72 13 10-4 393-196 442-220l107 4c17-5 163-41 175-94 6-17 5-31-7-43z" horiz-adv-x="1000" />

<glyph glyph-name="switch" unicode="&#xe80a;" d="M181 725a23 23 0 0 1-14-6l-159-136a23 23 0 0 1 0-34l159-137a23 23 0 1 1 30 35l-112 96h779a24 24 0 0 1 23 23 24 24 0 0 1-23 22h-780l113 97a23 23 0 0 1-16 40z m635-432a23 23 0 0 1-13-40l113-96h-782a24 24 0 0 1-21-24 24 24 0 0 1 23-22h779l-112-96a23 23 0 0 1 30-35l159 137a23 23 0 0 1 0 34l-159 137a23 23 0 0 1-17 5z" horiz-adv-x="1000" />
</font>
</defs>
</svg>
